Poirot: Wielka czwórka / Poirot: The Big Four (2013) PL.HDTV.XviD-BiDA Lektor PL
Lovelace (2013) PLSUB.480p.BRRip.XviD.AC3-sav / Napisy PL
Zagrywka Czarnego / Svartur a leik (2012)  PL.BRRip.XviD-BiDA / Lektor PL
Trzebież / Breakout (2013) Lektor PL PL.DVDRip.XviD-GHW
Alpha Dog (2006) PL.BRRip.XviD-ZTR / LEKTOR PL

Warez 35590 | Akceptacja 0 | Pobranych plików 2229 | Konta 30941


Barbie: Perłowa księżniczka / Barbie: The Pearl Princess (2013) PLDUB.480p.BRRip.AC3.XviD.CiNEMAET-ferdek Dubbing PL +x264

Barbie: Perłowa księżniczka / Barbie: The Pearl Princess (2013) PLDUB.480p.BRRip.AC3.XviD.CiNEMAET-ferdek  Dubbing PL    +x264

Darmowe Filmy, Download, Darmowe Pliki, Darmowe Programy - Premiu.pl
Barbie: Perłowa księżniczka / Barbie: The Pearl Princess (2013) PLDUB.480p.BRRip.AC3.XviD.CiNEMAET-ferdek  Dubbing PL    +x264

Opis

Barbie: Perłowa księżniczka / Barbie: The Pearl Princess (2013) PLDUB.480p.BRRip.AC3.XviD.CiNEMAET-ferdek
Dubbing PL
produkcja: USA
gatunek: animowany
Barbie wciela się w rolę Luminy, syrenki ze specjalnym talentem, która marzy o tym, aby zostać księżniczką. Odkąd tylko pamięta ma specjalny dar - sprawia, że podmorskie perły tańczą i świecą. Lumina i jej najlepsza przyjaciółka Kuda, różowy konik morski, wyruszają w niezapomnianą podróż w głąb majestatycznego królestwa syren, gdzie przy pomocy swojego niezwykłego talentu, przygotowują się do królewskiego balu. Niespodziewanie Barbie odkrywa, że jej magiczne perły są kluczem do powstrzymania wrogów i definitywnego uratowania królestwa syren!
Barbie: Perłowa księżniczka / Barbie: The Pearl Princess (2013) PLDUB.480p.BRRip.AC3.XviD.CiNEMAET-ferdek
Dubbing PL
bluray / dvd
Format : AVI
Format/Info : Audio Video Interleave
File size : 1.27 GiB
Duration : 1h 13mn
Overall bit rate : 2 479 Kbps
Video
ID : 0
Format : MPEG-4 Visual
Format profile : Advanced Simple@L5
Format settings, BVOP : 2
Format settings, QPel : No
Format settings, GMC : No warppoints
Format settings, Matrix : Default (MPEG)
Codec ID : XVID
Codec ID/Hint : XviD
Duration : 1h 13mn
Bit rate : 2 100 Kbps
Width : 720 pixels
Height : 400 pixels
Display aspect ratio : 16:9
Frame rate : 23.976 fps
Color space : YUV
Chroma subsampling : 4:2:0
Bit depth : 8 bits
Scan type : Progressive
Compression mode : Lossy
Bits/(Pixel*Frame) : 0.304
Stream size : 1.08 GiB (85%)
Writing library : XviD 64
Audio
ID : 1
Format : AC-3
Format/Info : Audio Coding 3
Mode extension : CM (complete main)
Format settings, Endianness : Big
Codec ID : 2000
Duration : 1h 10mn
Source duration : 1h 10mn
Bit rate mode : Constant
Bit rate : 384 Kbps
Channel count : 6 channels
Channel positions : Front: L C R, Side: L R, LFE
Sampling rate : 48.0 KHz
Bit depth : 16 bits
Compression mode : Lossy
Stream size : 194 MiB (15%)
Alignment : Aligned on interleaves
Interleave, duration : 33 ms (0.80 video frame)
x264
Format : Matroska
Format version : Version 2
File size : 820 MiB
Duration : 1h 13mn
Overall bit rate : 1 557 Kbps
Writing application : HandBrake rev5474
Writing library : libmkv 0.6.5
TITLE : Barbie The Pearl Princess 2014 PLDUB 480p BRRip AC3 XviD CiNEMAET-ferdek
Video
ID : 1
Format : AVC
Format/Info : Advanced Video Codec
Format profile : Main@L4.0
Format settings, CABAC : Yes
Format settings, ReFrames : 4 frames
Codec ID : V_MPEG4/ISO/AVC
Duration : 1h 13mn
Width : 720 pixels
Height : 400 pixels
Display aspect ratio : 16:9
Frame rate mode : Constant
Frame rate : 23.976 fps
Color space : YUV
Chroma subsampling : 4:2:0
Bit depth : 8 bits
Scan type : Progressive
Writing library : x264 core 130 r2273 b3065e6
Encoding settings : cabac=1 / ref=1 / deblock=1:0:0 / analyse=0x1:0x111 / me=hex / subme=2 / psy=1 / psy_rd=1,00:0,00 / mixed_ref=0 / me_range=16 / chroma_me=1 / trellis=0 / 8x8dct=0 / cqm=0 / deadzone=21,11 / fast_pskip=1 / chroma_qp_offset=0 / threads=12 / lookahead_threads=3 / sliced_threads=0 / nr=0 / decimate=1 / interlaced=0 / bluray_compat=0 / constrained_intra=0 / bframes=3 / b_pyramid=2 / b_adapt=1 / b_bias=0 / direct=1 / weightb=1 / open_gop=0 / weightp=1 / keyint=240 / keyint_min=24 / scenecut=40 / intra_refresh=0 / rc_lookahead=10 / rc=crf / mbtree=1 / crf=20,0 / qcomp=0,60 / qpmin=0 / qpmax=69 / qpstep=4 / vbv_maxrate=20000 / vbv_bufsize=25000 / crf_max=0,0 / nal_hrd=none / ip_ratio=1,40 / aq=1:1,00
Language : English
Default : Yes
Forced : No
Color primaries : BT.601 NTSC
Transfer characteristics : BT.709
Matrix coefficients : BT.601
Audio
ID : 2
Format : AAC
Format/Info : Advanced Audio Codec
Format profile : LC
Codec ID : A_AAC
Duration : 1h 13mn
Channel count : 2 channels
Channel positions : Front: L R
Sampling rate : 48.0 KHz
Compression mode : Lossy
Default : Yes
Forced : No

Linki


Zaloguj się!

Reklama

Nie masz konta ?

Nie posiadasz jeszcze konta w naszym portalu? Zarejestruj się! To nic nie kosztuje.!

Zarejestruj się